Jump to content

Trackilisting of Dj Skazi Live on 102Fm Isreal


Guest

Recommended Posts

  • 4 weeks later...
Guest Bimbo Frogger

PERFORMER "DJ Skazi"

TITLE "Live on 102fm Israel, 21.06.2002"

FILE "DJ Skazi - Live on 102fm Israel, 21.06.02.mp3" MP3

TRACK 01 AUDIO

PERFORMER Skazi

INDEX 01 00:00:00

TITLE "Super Skazi"

TRACK 02 AUDIO

TITLE Storm

PERFORMER Skazi

INDEX 01 08:14:00

TRACK 03 AUDIO

TITLE "Cost me"

PERFORMER Skazi

INDEX 01 14:17:00

TRACK 04 AUDIO

TITLE Passion

PERFORMER Skazi

INDEX 01 18:45:00

TRACK 05 AUDIO

TITLE "Big Bala Boom"

PERFORMER Skazi

INDEX 01 25:00:00

TRACK 06 AUDIO

TITLE "Alex's Tooth"

PERFORMER Skazi

INDEX 01 30:50:00

TRACK 07 AUDIO

TITLE Element

PERFORMER Skazi

INDEX 01 38:40:00

TRACK 08 AUDIO

TITLE "Boom Shankar"

PERFORMER "Gms vs Skazi vs Parasense"

INDEX 01 45:14:00

TRACK 09 AUDIO

TITLE Alive

PERFORMER Skazi

INDEX 01 50:42:00

Link to post
Share on other sites
  • 18 years later...

Someone have this mp3? I have it in Italy but I stuck overseas and can’t get it back and it’s an awesome track and super longer track and the file was like 100/120mb as mp3 if I’m not wrong and to me is the best track ever 

Link to post
Share on other sites

Join the conversation

You can post now and register later. If you have an account, sign in now to post with your account.

Guest
Reply to this topic...

×   Pasted as rich text.   Restore formatting

  Only 75 emoji are allowed.

×   Your link has been automatically embedded.   Display as a link instead

×   Your previous content has been restored.   Clear editor

×   You cannot paste images directly. Upload or insert images from URL.

×
×
  • Create New...